กวน มึน โฮ MINI-HD

Download Mediafire Master VCD โหลดหนัง
โหลดหนัง [MINI-HD] กวน มึน โฮ (2010) [พากษ์ไทย]
กวน มึน โฮ (2010) ~ Hello Stranger

Rated PG-13
Copyright/Studio GTH
Genres
Comedy , Romance , Thai

Director
บรรจง ปิสัญธนะกูล
Starring
ฉันทวิชช์ ธนะเสวี , หนึ่งธิดา โสภณ
Synopsis
เมื่อหนุ่มสุดกวนมาเจอะกะสาวสุดมึน เรื่องราวโรแมนติกก็เกิดขึ้นในแบบไม่ซ้ำใคร ในภาพยนตร์โฮแมนติก กวนมิดี้ ที่จะมาเรียกทั้งเสียงหัวเราะและน้ำตาในเวลาเดียวกัน

เขาและเธอ ชายหญิงแปลกหน้า ที่ดันต้องมาจูงมือกันเที่ยวในนครแห่งความโรแมนติก

เดี๋ยวนี้ใครๆ ในกรุงเทพฯ ก็คลั่งไคล้เกาหลี สาวออฟฟิศสีลมร้องไห้น้ำตาแทบเป็นสายเลือดเพราะ Autumn in My Heart , คุณแม่บ้านย่านลาดพร้าวก็หัดดองกิมจิกับ แดจังกึม , เด็กสยามแห่ตัดผมทรงเดียวกันจนดูไม่ออกว่าใครเรน ใครดงบังชิงกิ ฯลฯ สารพันความฮิตและอินเทรนด์นี้ทำให้ใครๆ ก็อยากไปสัมผัสไออุ่นในสถานที่ๆ เบยองจุนเคยหัวเราะ และจอนจีฮุนเคยร้องไห้

ชายหนุ่มหญิงสาวคู่หนึ่งก็เลือกที่จะไปเที่ยวเกาหลีด้วยเหตุผลที่ไม่ซ้ำใคร ทั้งคู่ไม่ได้ไปด้วยกัน แต่กลับพร้อมกัน… ชายหนุ่ม (เต๋อ – ฉันทวิชช์ ธนะเสวี – ปิดเทอมใหญ่หัวใจว้าวุ่น) ผู้ชายที่จะไปย่ำแดนกิมจิด้วยรองเท้าแตะคีบ และเสื้อยืดย้วยๆบวกกางเกงขาสั้น เขาเป็นคนเดียวในกรุ๊ปทัวร์ที่ไม่มีครอบครัวหรือคนรักมาด้วย บางทีที่นั่งว่างเปล่าข้างๆ อาจเป็นสาเหตุให้เขาเมามายขนาดนี้ในวันเดินทาง

หลังล้อเครื่องแตะพื้นผิวท่าอากาศยานกรุงโซล โปรแกรมเที่ยวตามรหัสนรก 6-7-8 (ตื่นนอน – กินข้าว – ล้อหมุน) ก็เริ่มต้นขึ้น ชายหนุ่มจำทนฟังมุขฝืดของไกด์อยู่ครึ่งค่อนวัน ยอมสวมบทตากล้องจำเป็นให้กับคู่หวานแหววชักรูปกับป้ายบ้าๆ บอๆ เป็นรอบที่ร้อย คืนนั้นชายหนุ่มเลยต้องพึ่งเหล้าโซจูย้อมใจ เข้าทำนอง “ ดื่มเพื่อลืมทัวร์” แต่เรื่องกลับกลายเป็นว่า เขามาเมาสลบอยู่หน้าเกสท์เฮาส์แห่งหนึ่งในชุดคลุมอาบน้ำโรงแรม!

เช้าวันรุ่งขึ้น ชายหนุ่มลุกพรวดขึ้นมาหมิ่นเหม่เวลาล้อหมุน หญิงสาว (หนูนา – หนึ่งธิดา โสภณ) ที่ยืนอยู่ตรงนั้นร้องโวยวาย เพราะต้องการทวงเสื้อหนาวที่เธอเสียสละให้เขาใช้คลุมกายคืน ชายหนุ่มผู้หลงทิศจึงบังคับแกมตีมึนให้หญิงสาวพาไปส่งที่โรงแรม แต่เพราะหลงทางเสียเวลา หลงเสพสุราเสียอนาคต ชายหนุ่มตกรถพลาดทัวร์สุดเนิร์ด จนต้องมาเกาะสอยห้อยตามหญิงสาวที่ตั้งใจมาทัวร์เดี่ยวตะลุยโลเกชั่นซีรีย์สสุดฮิตของเกาหลีแทน

ชายหนุ่มอดสงสัยไม่ได้ว่า ทำไมหญิงสาวถึงมาเที่ยวคนเดียว เธอตอบง่ายๆว่า เที่ยวคนเดียวไม่ต้องเกรงใจใคร อยากไปไหนก็ไป ไม่ต้องทะเลาะกับใครด้วย อาจเพราะความคะนอง หรือ ความเหงาทำงานเต็มที่ก็สุดจะเดา อยู่ๆ ชายหนุ่มก็ยื่นข้อเสนอ “ งั้นเรามาเที่ยวด้วยกันมั้ย ถ้าเธอไม่ชอบเที่ยวกับคนรู้จัก เราก็ไม่ต้องรู้จักกัน ไม่รู้ชื่อ ไม่รู้ข้อมูลส่วนตัว” เขายิ้มร่าพลางสรุป “ เราจะเป็นแค่คนแปลกหน้าสองคนที่ไปเที่ยวด้วยกัน”

อาจเพราะความมึนจากฤทธิ์เหล้าโซจูที่เธอกระดกหมดถ้วย หรือ ความทะเล้นของชายหนุ่มที่ทำให้หญิงสาวอบอุ่นใจ เธอจึงตอบตกลง “ โอเค พอกลับเมืองไทยเราก็ไม่เจอกันแล้ว เพราะฉะนั้นอยู่ที่นี่เราจะเป็นตัวของตัวเองกันให้สุดๆ”

เขาและเธอ คนสองคนที่ไม่รู้จัก แต่เที่ยวด้วยกัน กินพร้อมกัน นอนห้องเดียวกัน คุยกันได้ทุกเรื่อง แลกความลับที่สุดในชีวิตซึ่งกันและกัน เขาและเธอ คนแปลกหน้าที่รู้ใจกันดีที่สุด เขาและเธอ คนสองคนที่ไม่รู้จัก แต่รักกัน…

Format : Matroska
File size : 3.32 GiB
Duration : 2h 4mn
Overall bit rate : 3 800 Kbps
Movie name : กวน มึน โฮ 720p
Encoded date : UTC 2012-05-07 20:30:49
Writing application : mkvmerge v4.6.0 ( Still Crazy After All These Years ) built on Mar 10 2011 02:50:32
Writing library : libebml v1.2.0 + libmatroska v1.1.0

Video
ID : 1
Format : AVC
Format/Info : Advanced Video Codec
Format profile : High@L5.1
Format settings , CABAC : Yes
Format settings , ReFrames : 3 frames
Muxing mode : Container profile=Unknown@5.1
Codec ID : V_MPEG4/ISO/AVC
Duration : 2h 4mn
Bit rate : 3 402 Kbps
Width : 1 280 pixels
Height : 692 pixels
Display aspect ratio : 1.850
Frame rate : 25.000 fps
Color space : YUV
Chroma subsampling : 4:2:0
Bit depth : 8 bits
Scan type : Progressive
Bits/(Pixel*Frame) : 0.154
Stream size : 2.86 GiB (86%)
Writing library : x264 core 114 r1924 08d04a4
Encoding settings :

Audio
ID : 2
Format : AC-3
Format/Info : Audio Coding 3
Mode extension : CM (complete main)
Codec ID : A_AC3
Duration : 2h 4mn
Bit rate mode : Constant
Bit rate : 448 Kbps
Channel(s) : 6 channels
Channel positions : Front: L C R , Side: L R , LFE
Sampling rate : 48.0 KHz
Stream size : 400 MiB (12%)

โหลดหนัง [Mini-HD] กวน มึน โฮ (2010) [พากษ์ไทย]


screenshot โหลดหนัง [Mini HD] กวน มึน โฮ (2010) [พากษ์ไทย]
minihidefdvdqualityhellostranger2010720phqcthts004999112824%5B1%5D โหลดหนัง [Mini HD] กวน มึน โฮ (2010) [พากษ์ไทย]
minihidefdvdqualityhellostranger2010720phqcthts026923113148%5B1%5D โหลดหนัง [Mini HD] กวน มึน โฮ (2010) [พากษ์ไทย]
minihidefdvdqualityhellostranger2010720phqcthts077036113611%5B1%5D โหลดหนัง [Mini HD] กวน มึน โฮ (2010) [พากษ์ไทย]
download โหลดหนัง [Mini HD] กวน มึน โฮ (2010) [พากษ์ไทย]
สำรอง
Share This :

Related Templates

Ads